Download Free Orphan 2009 Movie

Posted by on Nov 28th, 2009 and filed under Free Movies 2009. You can follow any responses to this entry through the RSS 2.0. You can leave a response or trackback to this entry

Orphan Movie Dvd-Rip

orphan

Title                            : Orphan
Year                             : 2009
Genre                            : Drama | Horror | Mystery | Thriller
iMDB URL                         : http://www.imdb.com/title/tt1148204/
Awards                           : 1 nomination

Complete name                    : Orphan.2009.DVDRIP.H264-ZEKTORM.mp4
Format                           : MPEG-4
Format profile                   : Base Media
Codec ID                         : isom
File size                        : 801 MiB
Duration                         : 2h 3mn
Overall bit rate                 : 796 Kbps
Subtitles                        : English, Spanish, French (Format: VobSub)

Video
Format                           : AVC
Format/Info                      : Advanced Video Codec
Format profile                   : [email protected]
Format settings, CABAC           : Yes
Format settings, ReFrames        : 10 frames
Codec ID                         : avc1
Codec ID/Info                    : Advanced Video Coding
Duration                         : 2h 3mn
Bit rate mode                    : Variable
Bit rate                         : 727 Kbps
Width                            : 720 pixels
Height                           : 416 pixels
Display aspect ratio             : 16/9
Frame rate mode                  : Constant
Frame rate                       : 23.976 fps
Resolution                       : 24 bits
Colorimetry                      : 4:2:0
Scan type                        : Progressive
Bits/(Pixel*Frame)               : 0.101
Stream size                      : 640 MiB (91%)
Title                            : Video
Writing library                  : x264

Audio
Format                           : AAC
Format/Info                      : Advanced Audio Codec
Format version                   : Version 4
Format profile                   : LC
Format settings, SBR             : Yes
Format settings, PS              : No
Codec ID                         : 40
Duration                         : 2h 3mn
Bit rate mode                    : Variable
Bit rate                         : 66.15 Kbps
Maximum bit rate                 : 104 Kbps
Channel(s)                       : 2 channels
Channel positions                : L R
Sampling rate                    : 48.0 KHz
Resolution                       : 16 bits
Stream size                      : 58.1 MiB (8%)
Title                            : English
Language                         : English
Another quality dvd-release by UNKNOWN
Link: Download it now
You don’t know how to download a torrent? Check this out!

Disclaimer:

All the movies being linked here came from original/verified torrent sources. We don’t create or upload these torrent files in our servers. Torrents in nature are legal. Links here are shared in the P2P community and supports the DMCA (Digital Millenium Copyrights Act) However, we don’t disclose the possibility that sometimes your country/region/state may not permit downloads of such media. You can always contact your ISP to verify this matter. Also, we don’t hold any jurisdictions if you browse for another torrent link aside the one we featured here in this post.

Pinoytutorial doesn’t hold any rights if you got infringe by any legal issues.

Feel free to comment about the quality of this movie. Thank you

(sources: isohunt)

Share

Leave a Reply

Advertisement
PINOYTUTORIAL OFFICIAL THEME FOR LIFEBYTES