Download Free Surrogates Movie 2009

Posted by on Nov 28th, 2009 and filed under Free Movies 2009. You can follow any responses to this entry through the RSS 2.0. You can leave a response or trackback to this entry

Surrogates DvD-Rip XVID-MAX
surrogates  
Surrogates (2009) R5 DVDRip XviD-MAX Torrent Free Download

Format                           : AVI
Format/Info                      : Audio Video Interleave
Format profile                   : OpenDML
File size                        : 1.35 GiB
Duration                         : 1h 24mn
Overall bit rate                 : 2 281 Kbps
Writing application              : VirtualDubMod 1.5.10.2 (build 2542/release)
Writing library                  : VirtualDubMod build 2542/release
Original source form             : MAX TORRENTZ
Copyright                        : SIGISMUNT

Video
ID                               : 0
Format                           : MPEG-4 Visual
Format profile                   : [email protected]
Format settings, BVOP            : Yes
Format settings, QPel            : No
Format settings, GMC             : 3 warppoints
Format settings, Matrix          : Default (MPEG)
Codec ID                         : XVID
Codec ID/Hint                    : XviD
Duration                         : 1h 24mn
Bit rate                         : 2 081 Kbps
Width                            : 720 pixels
Height                           : 304 pixels
Display aspect ratio             : 2.35:1
Frame rate                       : 25.000 fps
Resolution                       : 24 bits
Colorimetry                      : 4:2:0
Scan type                        : Progressive
Bits/(Pixel*Frame)               : 0.380
Stream size                      : 1.23 GiB (91%)
Writing library                  : XviD 1.2.1 (UTC 2008-12-04)

Audio
ID                               : 1
Format                           : MPEG Audio
Format version                   : Version 1
Format profile                   : Layer 3
Codec ID                         : 55
Codec ID/Hint                    : MP3
Duration                         : 1h 24mn
Bit rate mode                    : Constant
Bit rate                         : 192 Kbps
Channel(s)                       : 2 channels
Sampling rate                    : 44.1 KHz
Resolution                       : 16 bits
Stream size                      : 117 MiB (8%)
Alignment                        : Aligned on interleaves
Interleave, duration             : 26 ms (0.65 video frame)
Interleave, preload duration     : 182 ms
Another quality dvd-release by MAXSPEED
Link: Download it now
You don’t know how to download a torrent? Check this out!

Disclaimer:

All the movies being linked here came from original/verified torrent sources. We don’t create or upload these torrent files in our servers. Torrents in nature are legal. Links here are shared in the P2P community and supports the DMCA (Digital Millenium Copyrights Act) However, we don’t disclose the possibility that sometimes your country/region/state may not permit downloads of such media. You can always contact your ISP to verify this matter. Also, we don’t hold any jurisdictions if you browse for another torrent link aside the one we featured here in this post.

Pinoytutorial doesn’t hold any rights if you got infringe by any legal issues.

Feel free to comment about the quality of this movie. Thank you

(sources: isohunt)

Share

1 Response for “Download Free Surrogates Movie 2009”

Leave a Reply to Cassandra Snoddy

Advertisement
PINOYTUTORIAL OFFICIAL THEME FOR LIFEBYTES